#TITLE:The Man With The Machine Gun;
#SUBTITLE:(Final Fantasy VIII);
#ARTIST:The Black Mages;
#TITLETRANSLIT:;
#SUBTITLETRANSLIT:;
#ARTISTTRANSLIT:;
#CREDIT:;
#BANNER:machinegun-ba.jpg;
#BACKGROUND:machinegun-bg.jpg;
#LYRICSPATH:;
#CDTITLE:Mus1c.png;
#MUSIC:The Man with the Machine Gun (Final Fantasy VIII).mp3;
#OFFSET:0.000;
#SAMPLESTART:27.980;
#SAMPLELENGTH:13.000;
#SELECTABLE:YES;
#BPMS:0.000=188.400;
#STOPS:;
#BGCHANGES:;
// cache tags:
#FIRSTBEAT:1.000;
#LASTBEAT:799.000;
#SONGFILENAME:Songs/nhac/The Man With The Machine Gun/machinegun.sm;
#HASMUSIC:1;
#HASBANNER:1;
#MUSICLENGTH:256.992;
// end cache tags

//---------------dance-single - ----------------
#NOTES:
     dance-single:
     :
     Hard:
     11:
     1.000,1.000,1.000,1.000,0.679,1185.000,297.000,326.000,0.000,30.000:
0000
0000
1001
1001
1001
1001
0000
1010
,
0000
0101
0000
1010
0000
1100
1100
0000
,
0011
0011
0000
0110
0110
0000
1001
0000
,
1010
0101
0000
1100
0000
0110
0110
0110
,
0110
0110
0200
0310
0010
0010
0010
0010
,
0010
0010
0010
0010
0010
0010
0010
0010
,
0010
0010
1000
1000
1000
1000
1000
1000
,
1000
1000
1000
1000
1000
1000
1000
0100
,
0010
1000
0001
0001
0001
0001
0001
0001
,
0001
0001
0001
0001
0001
0001
0001
0001
,
0001
0001
0100
0100
0100
0100
0100
0100
,
0100
0100
0100
0100
0100
0100
0100
1000
,
0100
0000
0010
0000
1100
0000
0001
1000
0001
0000
0100
0000
0100
0000
0010
0001
,
0010
0000
0001
0000
0001
0000
1000
0100
1000
0000
0010
0000
0010
0000
0100
1000
,
0100
0000
0001
0000
0001
0000
0100
0010
0100
0000
1000
0000
1000
0000
0001
0010
,
0001
0000
0100
0000
0100
0000
0001
1000
0001
0000
0010
0000
0010
0000
1000
0001
,
1000
0000
0100
0000
0011
0000
1000
0001
1000
0000
0110
0000
0110
0000
1000
0010
,
1000
0000
0011
0000
0011
0000
0100
0010
0100
0000
1001
0000
1001
0000
0100
0001
,
0100
0000
1010
0000
1010
0000
0001
1000
0001
0000
0101
0000
0101
0000
1000
0100
,
1000
0000
0110
0000
0110
0000
0001
0010
0001
0000
1100
0000
1100
0000
0000
0001
,
0010
0100
1000
0100
0002
0000
0000
0000
1000
0000
0000
0000
1000
0000
0000
0000
,
1000
0000
0000
0000
1000
0100
1000
0100
1000
0100
1000
0100
1000
0100
1000
0023
,
0230
0320
0000
0000
2130
0000
0000
0000
0000
0000
0000
0000
0000
0000
0000
0000
,
0000
0000
3002
2003
3002
0203
0000
0000
0000
0000
0000
0000
0000
0000
0000
0000
,
0000
0000
0320
2030
3200
0302
0000
0000
0000
0000
0000
0000
0000
0000
0000
0000
,
0000
0000
0023
0032
2003
3200
0000
0000
0000
0000
0000
0000
0000
0000
0000
0000
,
0000
0000
2300
3200
0320
0032
0000
0000
0223
0000
0000
0000
0000
0000
0000
0000
,
0000
0000
0000
0000
,
0000
0000
0000
0000
,
0000
0000
0000
0000
,
0000
2331
0000
0000
,
0000
0000
3020
0230
0320
2030
0000
0000
0000
0000
0000
0000
0000
0000
0000
0000
,
0000
0000
3020
0230
0302
2003
0000
0000
0000
0000
0000
0000
0000
0000
0000
0000
,
0000
0000
3200
0320
2030
3002
0000
0000
0000
0000
0000
0000
0000
0000
0000
0000
,
0000
0000
0000
0000
0023
0032
0000
0000
2003
0000
3200
0000
0000
2300
0000
3020
,
0000
0000
0000
2030
0000
3200
0000
0000
0302
0000
0023
0000
0000
0230
0000
0320
,
0000
0230
0000
0302
0000
2003
0000
0000
0000
0000
0000
0000
0000
0000
0010
0001
,
0010
0001
0010
0001
0010
0100
0001
0100
0001
0100
0001
0100
0001
0100
0001
0100
,
3020
1230
0000
0000
,
0000
0000
0320
0032
0203
2300
0000
0000
0000
0000
0000
0000
0000
0000
0000
0000
,
0000
0000
3200
0302
0203
0320
0000
0000
0000
0000
0000
0000
0000
0000
0000
0000
,
0000
0000
0230
2300
3020
0032
0000
0000
0000
0000
0000
0000
0000
0000
0000
0000
,
0000
0000
0203
0320
2030
3002
0000
0000
0223
0000
0000
0000
0000
0000
0000
0000
,
0000
0000
0000
0000
,
0000
0000
0000
0000
,
0000
0000
0000
0000
,
0000
2332
0000
0000
,
0000
0000
0000
0000
,
0000
3203
0320
0230
0000
0320
0000
0000
,
0000
0000
0000
0000
,
0000
2230
0000
0000
,
0000
0000
0000
0000
,
0000
3320
0032
2003
0000
3200
0000
0000
,
0000
0000
0000
0000
0000
0000
0000
0011
,
0000
0000
0311
0000
2000
3200
2300
0000
3002
0000
0000
0023
0000
0000
0230
0000
,
0000
2300
0000
0000
3200
0000
0320
0000
0000
0032
0000
0000
0023
0000
0032
0000
,
0000
0203
0000
0000
2300
0000
3002
0000
0000
0000
0000
0010
0100
0010
0100
0010
,
0100
0010
0100
0010
0100
0010
0100
0000
0000
0000
0000
0010
1000
0010
1000
0010
,
1000
0010
1000
0010
2003
3200
0320
0000
0032
0000
0000
2003
0000
3020
0000
0000
,
0230
0000
0000
0320
0000
0000
2030
0000
3002
0000
0000
0203
0000
0000
0320
0000
,
0000
0032
0000
0000
0023
0000
2030
0000
0000
0000
0000
0000
0010
0100
0010
0100
,
0010
0100
0010
0100
0010
0100
0000
0000
0000
0000
0000
0000
0100
0001
0100
0001
,
3100
0001
0010
1000
0001
0010
1100
0000
1100
0000
1100
0000
1100
0000
0000
0000
,
0101
0000
0110
0000
0110
0000
1001
1001
,
0000
0011
0011
0000
1100
1100
0000
1001
,
0000
0101
0101
0000
1001
0000
1010
1010
,
0020
0230
0300
0001
0010
1000
0001
1000
,
0100
0010
0001
0100
1000
0100
0001
0010
,
1000
0000
0100
0000
0001
0000
0100
0100
0100
0100
0100
0100
0100
0100
0100
0100
,
0100
0000
0000
0000
0000
0000
0001
0001
0001
0001
0001
0001
0001
0001
0001
0001
,
0001
0000
0010
1000
0001
0100
1000
0010
,
0001
0010
0100
1000
0010
0001
0010
0001
,
0010
0100
1000
0021
0000
0000
0000
0000
,
0000
0000
0000
0000
0000
0030
0000
0001
,
1000
0100
1000
0002
0000
0023
0000
0000
,
1030
0100
0010
0010
1000
1000
0001
0001
,
0100
0100
0010
0010
1000
1000
0001
0001
,
0100
0100
1000
1000
0001
0001
0100
0100
,
0001
0001
0100
0100
1000
0010
0100
1000
,
0001
0100
0001
0010
1000
0001
0010
2200
,
0000
0000
0000
0000
0000
0000
0000
0000
0000
0000
0000
0000
3322
0033
0022
0000
,
0000
0000
0000
0000
0000
0030
0223
0000
0000
0000
0000
0000
2332
0000
0000
0000
,
0000
0000
0000
0000
3003
0000
0001
0010
0100
1000
0001
0010
0100
1000
0001
0010
,
0100
1000
0001
0010
0100
1000
0001
0010
0100
1000
0100
0010
0001
1000
0100
0010
,
0001
1000
0100
0010
0001
1000
0010
1000
0010
1000
0010
1000
0010
1000
0010
1000
,
0010
1000
0010
1000
0010
1000
0100
0010
0001
0100
0001
0100
0001
0100
0001
0100
,
0001
0100
0001
0100
0001
1000
0020
0000
0000
0000
0000
0000
0000
0000
1030
0000
,
0100
0001
0010
0001
0100
0020
1030
0100
,
0001
0000
0200
0000
0310
0000
2002
0000
0000
0000
0000
0000
3003
0000
0100
0010
,
0001
0010
0100
1000
0100
0010
0001
0010
1000
0100
0010
0000
1000
0000
0001
0000
,
0100
0010
1000
0202
0000
0000
0303
0000
,
0000
1100
0110
0022
0000
0000
0000
0000
,
0000
0000
0000
0000
0000
0000
0000
0133
,
1000
0000
0010
0000
0100
0000
0001
0000
0010
0000
0001
0010
0100
1000
0010
0001
,
0100
0000
1000
0000
0100
0000
0001
0000
1000
0000
0001
0000
0010
0000
0100
0000
0001
0000
1000
0000
0001
0000
0100
0000
0010
0000
1000
0000
0001
0010
0100
0000
,
1000
0000
0100
0000
0001
0010
0100
0000
1000
0000
0100
0000
0001
0010
0100
0000
1000
0000
0100
0000
0001
0010
0100
0000
1000
0000
0001
0000
0100
0000
0010
0000
,
1000
0100
0010
0001
1000
0100
0010
1000
0100
0001
1000
0010
0100
0010
0002
0000
,
0000
0000
0000
0000
0000
0000
0000
0000
0000
0000
0000
0000
0013
0200
0000
0000
0000
0000
0000
0000
0320
0000
0000
0000
2030
0000
0000
0000
3200
0000
0000
0000
,
0320
0032
2003
3010
0010
0010
0010
0010
,
0010
0000
1000
0000
0100
0100
0100
0000
,
0001
0000
0010
0000
0100
0100
0100
0100
,
0100
0000
0001
0000
0010
0000
1000
1000
,
1000
1000
1000
0001
0001
0001
0001
0001
,
0001
0000
0010
0000
1000
1000
1000
0000
,
0100
0000
0001
0000
0010
0010
0010
0010
,
0010
0000
0000
0000
1000
0000
0000
0000
0100
0000
0000
0000
0010
0000
0010
0100
,
0010
0010
0010
1001
1001
1001
1001
1001
,
1001
0000
0011
0000
1010
1010
1010
0000
,
0110
0000
1100
0000
1010
1010
1010
1010
,
1010
0000
0101
0000
0011
0000
0110
0110
,
0110
0110
0110
0011
0011
0011
0011
0011
,
0011
0000
0110
0000
1001
1001
1001
0000
,
0110
0000
1010
0000
1100
1100
1100
1100
,
1100
0000
0011
0000
0110
0000
1001
1001
,
1001
0000
1001
0000
1001
0000
0000
0011
0000
1010
0000
0101
0000
0000
0000
0220
,
0330
0000
0000
0011
0000
1010
0000
0202
0303
0000
0000
1100
0000
0000
0000
2002
,
3003
0000
0000
0000
0000
0110
0000
0022
0033
0000
0000
0101
0000
0000
0000
2002
,
3003
0000
0000
0000
0000
0101
0000
2020
3030
0000
0000
0110
0000
0000
0000
2002
,
3003
0110
0000
0101
0000
1010
0000
0022
0033
1010
0000
0011
0000
1001
0000
0220
,
0330
0000
0000
1010
0000
0101
0000
2002
3003
0000
0000
0101
0000
0000
0000
0220
,
0330
0000
0000
0000
0000
0011
0000
2020
3030
0000
0000
0110
0000
0000
0000
2002
,
3003
0000
0000
0000
0000
1001
0000
0220
0330
0000
0000
1010
0000
0000
0000
0022
,
0033
0000
0000
1010
0000
0000
1100
0000
1100
0000
1100
0000
1100
0000
1100
0000
,
0101
0101
0101
0101
1100
0000
0000
1001
,
0110
0000
0101
0000
0110
0110
0110
0110
,
0110
0110
0000
1010
1010
1010
1010
1010
,
1010
1001
1001
2001
0000
0000
3011
0011
,
0011
0011
0011
0011
0011
0011
0011
0011
,
0011
0011
0011
1010
1010
1010
1010
1010
,
1010
1010
1010
1010
1010
1010
1010
0110
,
1001
1100
0101
0101
0101
0101
0101
0101
,
0101
0101
0101
0101
0101
0101
0101
0101
,
0101
0102
0010
0100
1000
0110
0110
1100
,
1100
0000
0110
0000
0000
0000
0010
0000
0010
0000
0010
0000
1000
0100
1000
0100
,
0023
0000
0000
0000
0000
0000
0000
0000
0000
0000
0000
0000
0000
0000
2030
3002
,
0203
0302
0000
0000
0000
0000
0000
0000
0000
0000
0000
0000
0000
0000
0203
0302
,
0023
2030
0000
0000
0000
0000
0000
0000
0000
0000
0000
0000
3200
0320
0032
0203
,
0000
0000
0000
0000
0000
0000
0000
0000
0000
0000
0000
0000
0000
0000
0302
0023
,
0230
2300
0000
0000
3220
0000
0000
0000
0000
0000
0000
0000
0000
0000
0000
0000
,
0000
0000
0000
0000
,
0000
0000
0000
0000
,
0000
0000
0000
0330
0000
0000
0002
0000
,
0000
0000
0000
0000
0000
0000
0000
0000
0203
0320
2030
3002
0000
0000
0000
0000
,
0000
0000
0000
0000
0000
0000
0000
0000
2003
3020
0230
2300
0000
0000
0000
0000
,
0000
0000
0000
0000
0000
0000
0000
0000
3020
0032
2003
3020
0000
0000
0000
0000
,
0000
0000
0000
0000
0000
0000
0000
0000
2030
3200
0320
0032
0000
0000
2003
0000
,
3002
0000
0023
0000
0000
0230
0000
0302
0000
0023
0000
0000
2030
0000
3200
0000
,
0320
0032
0203
2300
3002
0000
0000
0000
,
0000
0000
0010
0100
0010
0100
0010
0100
0010
0100
0010
0100
0010
0100
0010
0100
,
0010
0100
0010
0100
0013
0000
2000
0000
0000
0000
0000
0000
0000
0000
0000
0000
,
0000
0000
3200
0302
0023
2030
0000
0000
0000
0000
0000
0000
0000
0000
0000
0000
,
0000
0000
3200
0302
0203
0320
0000
0000
0000
0000
0000
0000
0000
0000
0000
0000
,
0000
0000
0230
0302
0203
0320
0000
0000
0000
0000
0000
0000
0000
0000
0000
0000
,
0000
0000
2030
3002
0023
0230
0000
0000
2300
0000
0001
0010
0001
0010
0001
0010
,
0001
0010
0001
0000
0000
0000
0000
0000
0100
0001
0100
0001
0100
0001
0100
0001
,
0100
0001
0000
0000
0000
0000
0010
0100
0010
0100
0010
0100
0010
0100
0010
0100
,
0010
0000
0000
0000
0001
0100
0001
0100
0001
0100
0001
0100
0001
0100
3001
0000
,
0220
0000
0000
0000
,
0000
0000
0000
0000
0000
0000
0000
0000
0000
0000
0030
0000
2320
3030
2020
3030
,
2020
3232
0000
0000
,
0000
0000
0000
0000
0000
0000
0000
0000
0000
0000
0000
0000
0000
0300
2203
0000
,
0000
0000
0000
0000
,
0000
0000
0000
0000
0000
0000
0000
0000
3322
0033
0022
0033
0022
0000
0000
0003
,
2032
0000
0000
0000
,
0000
0000
0000
0000
0000
0000
0000
0000
3003
0000
0200
0320
0000
0000
0032
0000
,
0000
2003
0000
3200
0000
0000
2300
0000
3020
0000
0000
0230
0000
0000
0302
0000
,
0023
0000
0000
0230
0000
2300
0000
0000
3020
0000
0032
0000
0000
0000
0000
0000
,
1000
0100
1000
0100
1000
0100
1000
0100
1000
0100
0000
0000
0000
0000
1000
0010
,
1000
0010
1000
0010
1000
0010
1003
0000
0020
0230
0000
0302
0000
0000
0203
0000
,
0000
0320
0000
2030
0000
0000
3200
0000
0320
0000
0000
0032
0000
0203
0000
0000
,
0320
0000
0000
0032
0000
0203
0000
0000
2301
0000
0000
0000
0000
0000
0100
0001
,
0100
0001
0100
0001
0100
0001
0100
0001
0000
0000
0000
0000
0010
0100
0010
0100
,
0010
0100
0010
0100
3002
0203
0000
0000
0320
0000
0000
0032
0000
0023
0000
0000
,
0230
0000
2300
0000
0000
3200
0000
0000
0302
0000
0023
0000
0000
0230
0000
0302
,
0000
0000
0023
0000
2030
0000
0000
0000
0000
0000
0010
0100
0010
0100
0010
0100
,
0010
0100
0010
0100
0000
0000
0000
0000
0001
0010
0001
0010
0001
0010
0001
0010
,
3001
0000
2000
3020
0000
2030
0000
0000
3002
0000
0000
0023
0000
2030
0000
0000
,
3002
0000
0203
0000
0000
2300
0000
3002
0000
0000
0023
0000
0000
2030
0000
3200
,
0000
0000
0320
0000
0000
0000
0000
0000
0100
1000
0100
1000
0100
1000
0100
1000
,
0100
1000
0000
0000
0000
0000
0000
0100
0001
0100
0001
0100
0001
0100
0001
0100
,
1031
1001
1001
1001
0000
0110
0000
1010
,
0000
0101
0000
1100
0011
0000
1100
1010
,
0000
0000
0011
0000
0110
0000
0000
1100
0000
0000
0000
0101
0000
1001
0000
0000
,
0000
0101
0000
0000
1010
0000
0011
0000
0110
0000
1001
0000
0011
0000
1100
0000
,
1010
0110
0101
0000
1010
0000
0011
0000
,
1100
0000
0000
0011
0000
1001
0000
0000
0000
0110
0000
1010
0000
0000
0000
0011
,
0000
1100
0000
0000
0101
0000
0000
0000
1010
0000
0011
0000
0000
0000
1100
0000
,
0000
1001
1001
1001
2001
0000
0000
0000
,
0000
0000
0000
0000
,
3002
0000
0000
0000
,
0000
0023
0000
0000
0000
0000
0000
0000
,
0000
0000
0000
2032
0000
0000
0000
0000
,
0000
0000
0000
0000
,
0000
0000
0000
0000
,
0000
0000
0000
0000
,
0000
0000
0000
0000
,
0000
0000
0000
0000
,
0000
0000
0000
0000
,
0000
0000
0000
0000
,
0000
0000
0000
3003
;
